Wolfgang Amadeus Mozart Requiem Lyrics


Kyrie eleison, Christe eleison, Kyrie eleison. SSA Choral Octavo. Más Letras de Wolfgang Amadeus Mozart. Domine Deus 6. Notes and appendices of movements composed by Süßmayr on themes probably by Mozart. Song: KV 626 Requiem,13. Wolfgang Amadeus Mozart (1756-1791) wrote during the Classical Era of Western Classical Music, the same era that brings us Haydn and early Beethoven. 36 'Linz' (BBC Symphony Orchestra) that was released in 2006. Sequenz Dies irae. , Le concert des Nations, Riccardo Muti. Listen to Wolfgang Amadeus Mozart Essentials by Apple Music Classical on Apple Music. 15 in F Major, K. "Urtext edition taken from: Wolfgang Amadeus Mozart, Neue Ausgabe sämtlicher Werke, issued in association with the Mozart cities of Augsburg, Salzburg, and Vienna by the Internationale Stiftung Mozarteum Salzburg, Series IV, Category 11, Sinfonien, Band 6 (BA 4558)"--2nd prelim. english translation of mozart manly warringah choir. requiem structure and lyrics optus. Dies Irae Wolfgang Amadeus Mozart. Thou, O God, art praised in Sion, and unto Thee shall the vow be performed in Jerusalem. Requiem æternam Lyrics. This edition: ED1728. 626) by Wolfgang Amadeus Mozart was composed in Vienna in 1791 and left unfinished at the composer's death. Listen to Herbert Von Karajan Requiem (Musique Maçonnique Funéraire, Kv 477 - Wolfgang Amadeus Mozart) MP3 song. Music by Wolfgang Amadeus Mozart / ed. The Requiem Mass in D minor by Wolfgang Amadeus Mozart was composed in Vienna in 1791. Requiem kv626 in d minor: Requiem. Lyrics of German Dance For Orchestra In C Major (Die Schlittenfahrt), K. Lauridson - Lux Aeterna: Mozart - Requiem. 626; Lacrimosa" by Wolfgang Amadeus Mozart. Category:Mozart, Wolfgang Amadeus. Wolfgang Amadeus Mozart - Requiem - Herbert von Karajan. Dies Irae Wolfgang Amadeus Mozart. ; [1] 27 January 1756 - 5 December 1791), baptised as Johannes Chrysostomus Wolfgangus Theophilus Mozart, [2] was a prolific and influential composer of the Classical era. Mozart, Wolfgang Amadeus: Opus/Catalogue Number Op. , with English words, by Patrick M. 626: Lacrimosa" is a song by Wolfgang Amadeus Mozart. Unlimited free Wolfgang Amadeus Mozart music - Click to play Lacrimosa, I. christian hymns amp songs dies iræ lyrics english. He composed 162,034 "pieces" in his short life time. Wolfgang Amadeus Mozart (also known as Johannes Chrysostomus Wolfgangus Theophilius Amadé Gottlieb ) is the writer of this piece of music. "Dies Irae" Requiem Mass in D Minor II by Wolfgang Amadeus Mozart - discover this song's samples, covers and remixes on WhoSampled GET AD-FREE WHOSAMPLED PREMIUM! GO AD-FREE WITH WHOSAMPLED PREMIUM! Buy this Track "Dies Irae" Requiem Mass in D Minor II. 1b) and andante (K. Requiem In D Minor, K. Cordeiro de Deus. Requiem æternam. Learn every word of your favourite song and get the meaning or start your own concert tonight :-). Wolfgang Amadeus Mozart - Samples, Covers and Remixes on WhoSampled. Learn every word of your favourite song and get the meaning or start your own concert tonight :-). , Stephen Cleobury. 525, "Eine kleine Nachtmusik": II. Learn more about Mozart in this article. WOLFGANG AMADEUS MOZART - Requiem - CD - **Excellent Condition**. Wolfgang Amadeus Mozart (Pronounced Wolverine Deus Ex Machina Poptart) or Whoop Ass Mozart (29th February 1756 - 28th February 1791) was an amateur composer of muzak and met his soon-to-be civil partner Beethoven in 1762. Classical Period. 626 The Easy Love Songs Fake Book Sheet Music Melody Lyrics and. Requiem Requiem aeternam dona eis, Domine, et lux perpetua luceat eis Te decet Hymnus, Deus in Sion, et tibi reddetur votum in Jerusalem Exaudi Orationem meam, ad te omnis caro veniet Requiem aeternam dona eis, Domine, et lux perpetua luceat eis Kyrie eleison, Christe eleison, Kyrie eleison 2. Lyrics to 'Requiem' by Mozart: Requiem aeternam dona eis, Domine, et lux perpetua luceat eis, te decet hymnus, Deus in Sion, et tibi reddetur votum in Jerusalem; exaudi orationem meam, ad te omnis caro veniet. Wolfgang Amadeus Mozart. View Wolfgang Amadeus Mozart song lyrics by popularity along with songs featured in, albums, videos and song meanings. TOP Letras Wolfgang Amadeus Mozart. Type song title, artist or lyrics. others could have just been taken from particular editions of the Requiem that rearranged a little the lyrics. Some of Wolfgang Amadeus Mozart's most popular songs include Piano Sonata No. Christmas Carol Songbook. "Say It to My Face" by Young Buck feat. from Il re pastore. The Requiem in D minor, K. It was left unfinished at the. Requiem lyrics - Wolfgang Amadeus Mozart. By 1772 he had composed 25 symphonies and two string quartets. Requiem In D Minor, K. Lyrics to 187 songs by Wolfgang Amadeus Mozart including "Requiem", "Lacrimosa" and more. Vivaldi - Gloria. 15 in F Major, K. The stranger asked Mozart to compose a requiem Mass, and offered to pay him. Karl Böhm was universally acclaimed for his Mozart interpretations. Más Letras de Wolfgang Amadeus Mozart. The Mass REQUIEM in D Minor, K. By the age of 5, Mozart already wrote a miniature allegro (K. In my opinion CPDL, for phylological (and eventually copyright, if those editions are recent) reasons should have the Requiem lyrics. Lacrimosa, Papageno & Papagena Duett, Laudate Dominum. Mozart composed part of the Requiem in Vienna in late 1791, but it was unfinished at his death on 5 December the same year. Music by Wolfgang Amadeus Mozart / ed. Unlike any other composer in musical history, he wrote in all the musical genres of his day and excelled in every one. What does wolfgang amadeus mozart mean? Information and translations of wolfgang amadeus mozart in the most comprehensive dictionary definitions resource on the web. Requiem for soloists, chorus, and orchestra, K. Arranged for Violin and Piano. The table below gives the following information for works by Wolfgang Amadeus Mozart (where applicable):. 626) Requiem Requiem, K. A triumphant Mozart masterwork for today's choirs! This joyful opera finale opens and closes with a boisterous choral fanfare, sandwiches a brief expressive vocal duet in the middle, features robust Italian lyrics. Included here are links to websites for biographical information and free sheet music as well as videos of some of his most famous pieces. Christmas Carol Songbook. Wolfgang Amadeus Mozart's final Masterpiece was commissioned in mid 1791 by the Austrian count Franz Von Walsegg, as a Tribute to the passing of his young wife Anna. from Il re pastore. Wolfgang Amadeus Mozart Tabs arranged alphabetically. Mozart, Wolfgang Amadeus Dies Irae - Requiem in D Minor K. Lacrimosa Voir les paroles. He composed 162,034 "pieces" in his short life time. This week's CD review is the Requiem Mass for the Dead by Wolfgang Amadeus Mozart, as performed by St Martin in the Fields, conducted by Sir Neville Marriner. Tearful that day, on which will rise from ashes guilty man for judgement. He went on to write some of the most important masterpieces of the Classical era, including symphonies, operas, string quartets and piano music. Bernstein - Chichester Psalms: Dvorak - Stabat Mater. net dictionary. IWM 290 Key C major Movements/Sections Mov'ts/Sec's: 6 movements: Kyrie eleison Gloria Credo Sanctus Benedictus Agnus Dei Year/Date of Composition Y/D of Comp. 626 The Easy Love Songs Fake Book Sheet Music Melody Lyrics and. Franz Süssmayr, a student of his, finished the rest of the Requiem, as Mozart had begun most of. Download the PDF, print it and use our learning tools to master it. "Urtext edition taken from: Wolfgang Amadeus Mozart, Neue Ausgabe sämtlicher Werke, issued in association with the Mozart cities of Augsburg, Salzburg, and Vienna by the Internationale Stiftung Mozarteum Salzburg, Series IV, Category 11, Sinfonien, Band 6 (BA 4558)"--2nd prelim. pdf Thos document contains the full score to Mozart's Dies Irae from the Requiem Mass (KV626). Andante cantabile, which was featured in the Bridgerton soundtruck, and Mozart: Requiem in D Minor, K. With vocal melody, lyrics, piano reduction and introductory text. View credits, reviews, tracks and shop for the 1971 Vinyl release of "Requiem" on Discogs. Translation of 'Kyrie' by Wolfgang Amadeus Mozart from Latin to English Deutsch English Español Français Hungarian Italiano Nederlands Polski Português (Brasil) Română Svenska Türkçe Ελληνικά Български Русский Српски العربية فارسی 日本語 한국어. Lacrimosa lyrics belongs on the album Requiem. from Il re pastore. Berlioz - Requiem. It has been arranged for 'Classical' and the number (SKU) in the catalogue is 32064. Mozart passed away on December of 1791, however, having finished and orchestrated only one movement. The tale begins as one of fiction would: A messenger arrives on Mozart's doorstep with a commission for a Requiem Mass. Mozart composed part of the Requiem in Vienna in late 1791, but it was unfinished at his death on 5 December the same year. By 1772 he had composed 25 symphonies and two string quartets. He died broke and was buried in a pauper's grave. E voi piante, e fior sinceri, Che ora innaffia il pianto amaro, Dite a lui, che amor più raro Mai vedeste sotto al ciel. requiem mass opus 89 alfred music method books sheet. TITLE "WOLFGANG AMADEUS MOZART - Requiem K 626 (extrait): Introïtus Requiem Æternam" PERFORMER "Montserrat Figueras, La Capella Reial de Catalunya, Le Concert des Nations, Jordi Savall" REM COMPOSER "Wolfgang Amadeus Mozart" REM INDEX 00 58:00:15 INDEX 01 58:03:43 TRACK 12 AUDIO TITLE "JOSEPH HAYDN - Les sept dernières paroles (extrait. Lyrics to 'Requiem (Latin)' by Mozart. Top Wolfgang Amadeus Mozart Lyrics Agnus Dei Andante Ave verum corpus, K. 1b) and andante (K. Requiem in D minor, K. SATB choir sheet music book by Wolfgang Amadeus Mozart (1756-1791): Alfred Music at Sheet Music Plus. 17 for soloists, chorus & orchestra in c minor, k. TTB Choral Octavo. He was the son of Leopold Mozart and Maria. No damage to the jewel case or item cover, no scuffs, scratches, cracks, or holes. Slechts één onderdeel van zijn compositieproject van de toonzetting van de teksten van de Latijnse Missa Defunctorum (dodenmis of requiem, naar de beginwoorden van het introïtus) heeft hij zelf voltooid. Listen to Wolfgang Amadeus Mozart by Wolfgang Amadeus Mozart on Deezer. "Coming 2 America" by Ludacris sampled Wolfgang Amadeus Mozart's ""Dies Irae" Requiem Mass in D Minor II". com, please consider making a donation. 25868 Followers. Lyrics for Requiem: "Confutatis"; "Lacrimosa" by Wolfgang Amadeus Mozart. Surprisingly, he is not identified with radical formal or harmonic innovations, or with the profound kind of symbolism heard in some of Bach's works. The Lacrimosa (Latin for "weeping/tearful"), also a name that derives from Our Lady of Sorrows, a title given to The Virgin Mary, is part of the Dies Irae sequence in the Roman Catholic Requiem Mass. Requiem (Musique Maçonnique Funéraire, Kv 477 - Wolfgang Amadeus Mozart) song from the album Herbert Von Karajan Vol. The Requiem in D minor, K. About the Composer of 'Requiem in D Minor' Mozart was born in Salzburg, Austria - the home of castles, wiener schnitzel, and Mozartkugel - a chocolate candy created in 1890 to honor Wolfgang Amadeus Mozart. requiem structure and lyrics optus. German Dance For Orchestra In C Major (Die Schlittenfahrt), K. Requiem in D minor, K. Birthplace: Salzburg, Austria Location of death: Vienna, Austria Cause of death: Fever Remains: Buried, Zentralfriedhof. View Wolfgang Amadeus Mozart song lyrics by popularity along with songs featured in, albums, videos and song meanings. wolfgang amadeus mozart - k620 the magic flute - queen of the night (guitar tab) (0/5) 2012-11-07 : 38: wolfgang amadeus mozart - k626 requiem mass in dm - kyrie eleison (guitar tab) (0/5) 2012-11-07 : 132: wolfgang amadeus mozart - k626 requiem mass in dm - lacrymosa (guitar tab) (0/5) 2012-11-07 : 221: wolfgang amadeus mozart - klavierstuck. But y'know, it's odd to me. Eine Kleine Nachtmusik. Andantino; Wolfgang Amadeus Mozart - Sanctus; Wolfgang Amadeus Mozart - Ho Capito, Signor, Si (opera Don. requiem mass opus 89 alfred music method books sheet. C'est l'éditeur Dover qui a publiée cette oeuvre. SSA Choral Octavo. French translation of lyrics for Requiem, Dies irae by Wolfgang Amadeus Mozart. Thou, O God, art praised in Sion, and unto Thee shall the vow be performed in Jerusalem. About Genius Contributor Guidelines Press Advertise Event Space. Schirmer Opera Score Editions. Complete song listing of Wolfgang Amadeus Mozart on OLDIES. requiem structure and lyrics optus. Current belief is that he died of heart failure following a bout of rheumatic fever. Letra de Lacrimosa (en español) Letra de Requiem (en español) Letra de Dies Irae. paroles de chanson / W / Wolfgang Amadeus Mozart lyrics | in English. Karl Böhm was universally acclaimed for his Mozart interpretations. One night a mysterious stranger knocked on the door of Mozart’s home. Piano Sonata No. Story of Mozart in Words and Music. Mozart's Requiem - Alto Chorus Rehearsal Aid. english translation of mozart manly warringah choir. This Piano sheet music was originally published in the key of F. High quality Guitar sheet music and tabs for The Marriage of Figaro Overture by Wolfgang Amadeus Mozart. 626: Lacrimosa, featured in the Wynonna Earp soundtruck. Tags: Kickass Classical Top 100. Duration 55m. requiem mass opus 89 alfred music method books sheet. Classical Period. Topics MUSIC. Wolfgang Amadeus Mozart (Pronounced Wolverine Deus Ex Machina Poptart) or Whoop Ass Mozart (29th February 1756 - 28th February 1791) was an amateur composer of muzak and met his soon-to-be civil partner Beethoven in 1762. Austrian musician Wolfgang Amadeus Mozart (1756-1791) was among the most prolific, versatile, and popular composers of all time. By 1772 he had composed 25 symphonies and two string quartets. what is the english translation of the latin phrase. In 2015 RR Auction sold a two line note signed by Mozart for $217,000 and in 2017 Christie's sold a signed letter for $319,500. Slovak philharmonic orchestra and choirThe translat. Wolfgang Amadeus Mozart was a great composer and performer (of violin and piano). By the time he was four years old, he was composing short pieces that his father wrote down for him. Turkish march; 5. Wolfgang Amadeus Mozart(German:[ˈvɔlfɡaŋ amaˈdeus ˈmoːtsaʁt],English see fn. The music for Requiem Aeternam (from 'Requiem') is available below. But it was all too much. It's both beautiful and haunting at the same time. Music by Wolfgang Amadeus Mozart / ed. Requiem in D minor, K. net dictionary. Wolfgang Amadeus Mozart - Sull'aria (traducción letra en español) - Sull'aria / Che soave zeffiretto / Questa sera spirerà / Zeffiretto / Questa sera spirerà / Questa sera spirerà / Sotto i pini del boschetto / Sotto i. Choral Vocal Score. A triumphant Mozart masterwork for today's choirs! This joyful opera finale opens and closes with a boisterous choral fanfare, sandwiches a brief expressive vocal duet in the middle, features robust Italian lyrics. IWM 290 Key C major Movements/Sections Mov'ts/Sec's: 6 movements: Kyrie eleison Gloria Credo Sanctus Benedictus Agnus Dei Year/Date of Composition Y/D of Comp. 417a/427 (fragment) "great": iia. It has been arranged for 'Classical' and the number (SKU) in the catalogue is 18692. The Requiem Mass in D minor by Wolfgang Amadeus Mozart was composed in Vienna in 1791. Andante cantabile, which was featured in the Bridgerton soundtruck, and Mozart: Requiem in D Minor, K. Song title Versions K626 Requiem Mass In Dm - Lacrymosa Tabs: 1: Klavierstuck Tabs: 1: Lacrymosa Tabs. One night a mysterious stranger knocked on the door of Mozart’s home. Kyrie Lyrics. He made his first attempts at composition at the tender age of six. Wolfgang Amadeus Mozart Requiem ( K. Wolfgang Amadeus Mozart lyrics. Libretto/Lyrics/Text/Testo: No. Mozart's Full Requiem in HQ:http://www. Read Full Biography. Already competent on keyboard and violin, he composed from the age of five and performed before European royalty. Parts shown in the score are for Voice (SATB), Basset Horns in F, Bassoon, Trumpet in D, Timpani, Violins, Viola, Cello, and Organ/Bass. Difficulty: medium-difficult. This ordering is chronological, based on Köchel catalogue (6th edition) and subsequent MS dating by Alan Tyson. 11; Die Zauberflöte-Der hölle. A completion by Franz Xaver Süssmayr was delivered to Count Franz von Walsegg, who had anonymously commissioned the piece for a requiem mass to commemorate the February 14 anniversary of his wife's death. Requiem aeternam dona ets, Domine, et lux perpetua luceat ets. Wolfganag Amadeus Mozart - Popular music from film. Letra de Dies Irae (en español) Letra de Penser l'imposible (en español) Letra de Lacrimosa. Wolfgang Amadeus Mozart - Neville Marriner*, Academy Of St. See more ideas about mozart, amadeus, classical music composers. FREE Shipping on orders over $25. In order to see the sheet music for Requiem Aeternam (from 'Requiem') please click on the preview button next to the score you are interested in. Notes and appendices of movements composed by Süßmayr on themes probably by Mozart. The Lyrics for Requiem, Lacrimosa by Wolfgang Amadeus Mozart have been translated into 2 languages Requiem aeternam dona eis, Domine, et lux perpetua luceat eis, te decet hymnus, Deus in Sion, et tibi reddetur votum in Jerusalem; exaudi orationem meam, ad te omnis caro veniet. Rises from the ashes. Dies Irae Lyrics: Dies irae, Dies illa / Solvet saeclum in favilla / Teste David cum Sybilla / Quantus tremor est futurus / Quando judex est venturus / Cuncta stricte discussurus / Dies irae, Dies. Introit: Requiem Requiem aeternam dona eis, Domine, et lux perpetua luceat eis. 1756 - 1791. Requiem de Wolfgang Amadeus Mozart, letra de la canción con el video. Brahms - Requiem: Durufle - Requiem. Wolfgang Amadeus Mozart Requiem in D minor K 626. This large-scale work, a missa solemnis, is scored for two soprano soloists, a tenor and a bass, double. (music: "Quatuor a cordes no 17 KV458 en si bémol majeur OP. Already competent on keyboard and violin, he composed from the age of five and performed before European royalty. Translation of 'Kyrie' by Wolfgang Amadeus Mozart from Latin to English Deutsch English Español Français Hungarian Italiano Nederlands Polski Português (Brasil) Română Svenska Türkçe Ελληνικά Български Русский Српски العربية فارسی 日本語 한국어. christian hymns amp songs dies iræ lyrics english. By the time he was four years old, he was composing short pieces that his father wrote down for him. Mozart, Wolfgang Amadeus: Opus/Catalogue Number Op. Cette partition a été composée pour Opéra Full Score. Andante cantabile, which was featured in the Bridgerton soundtruck, and Mozart: Requiem in D Minor, K. Is the Requiem we know actually what the Mozart Requiem would have sounded like had the composer lived long enough to see it completed? This study score at the Music Library shows all parts of the accepted Süßmayr completion - including markings which denote portions from the manuscript judged to be in Mozart's vs Süßmayr's handwriting. It is what it is. Mozart's Requiem is one of the most famous choral works in the classical repertoire. The tale begins as one of fiction would: A messenger arrives on Mozart's doorstep with a commission for a Requiem Mass. Mort à trente-cinq ans, il laisse une œuvre importante (six cent vingt-six œuvres sont répertoriées dans le catalogue Köchel), qui. EMI's Best Mozart 100 is a six-disc sampler of the most famous pieces by Wolfgang Amadeus Mozart, regarded by many as the greatest composer of the Classical era. 2 Song: Turkish March Artist: Wolfgang Amadeus Mozart - Transposed by Colton Wood (AwokenDEMON) Contact me at "[email protected] When he was six his father, Leopold Mozart, took Wolfgang and his sister Nannerl on a concert tour of Europe, showing off his. 3 translations. SKU: MN0160229. High quality sheet music for "Violin Concerto N° 5 In A Major I Mov" by Wolfgang Amadeus Mozart to download in PDF and print. Letra de La Hookah. Requiem for soloists, chorus, and orchestra, K. Home / W / Wolfgang Amadeus Mozart / K626 Requiem Mass In Dm - Lacrymosa tab. Compassionate Lord Jesus, grant them rest. 1756 - 1791. Eine Kleine Nachtmusik. Lacrimosa, Papageno & Papagena Duett, Laudate Dominum. One night a mysterious stranger knocked on the door of Mozart’s home. The song is being conducted by Wolfgang Amadeus Mozart. Lacrimosa, Papageno & Papagena Duett, Laudate Dominum. It was thought that Requiem was written by Mozart to be part of a Vienna Requiem. Orff - Carmina Burana: Christmas Carols. The visit from the mysterious man terrified Mozart, so he agreed to write the requiem. Music by Wolfgang Amadeus Mozart / ed. Wolfgang Amadeus Mozart. Requiem de Wolfgang Amadeus Mozart, letra de la canción con el video. 'Lacrimosa' is part of th. The mournful 'Lacrimosa' is a highlight, but how much of it did Mozart actually write? We all know that Wolfgang Amadeus Mozart was one of the most remarkable and naturally gifted musicians in history. Wolfgang Amadeus Mozart was a great composer and performer (of violin and piano). Rondo Alla Turca from Piano Sonata No. Austrian musician Wolfgang Amadeus Mozart (1756-1791) was among the most prolific, versatile, and popular composers of all time. Mozart was born into a musical family, as was often the case for composers before the nineteenth century. The table below gives the following information for works by Wolfgang Amadeus Mozart (where applicable):. About Genius Contributor Guidelines Press Advertise Event Space. 30 Christmas Carols. Dies iræ, dies illa Solvet sæclum en favilla Teste davidcum sybilla Quantus tremor est fu. Handel - Messiah: Haydn - The Creation. View Wolfgang Amadeus Mozart song lyrics by popularity along with songs featured in, albums, videos and song meanings. Commissioned with an anonymous letter delivered by an unknown messenger, Mozart's Requiem has haunted audiences and fueled myths for centuries. A completion by Franz Xaver Süssmayr was delivered to Count Franz von Walsegg, who had anonymously commissioned the piece for a requiem mass to commemorate the February 14 anniversary of his wife's death. Wolfgang Amadeus Mozart (1756-91) was born in Salzburg, the son of Leopold Mozart and Anna Maria Pertl. General Information. Learn every word of your favourite song and get the meaning or start your own concert tonight :-). Posted by Todd in Classical For Kids, What We're Listening To, WQXR and tagged with classical music, classical music for kids, Mozart, Music, Wolfgang Amadeus Mozart October 22, 2013 To my delight yesterday, WQXR (please let us do a late-night infomercial for you someday!) played a Mozart piece tortuously titled, “12 Variations in C Major on. Some of Wolfgang Amadeus Mozart's most popular songs include Piano Sonata No. Letra de Lacrimosa (en español) Letra de Requiem (en español) Letra de Dies Irae. Seniorenkoor | Kerkdienst | Online muziekwinkel van Stretta Music. Gloria: "Gloria In Excelsis" it is necessary to have java script enabled browser. A work of emotional power and dark fury,. Included here are links to websites for biographical information and free sheet music as well as videos of some of his most famous pieces. Die Entführugh aus dem Se. Choral Vocal Score. Lauridson - Lux Aeterna: Mozart - Requiem. Lacrimosa lyrics belongs on the album Requiem. Lacrimosa, Papageno & Papagena Duett, Laudate Dominum. Rate this song's lyrics. Mozart remains one of the rarest autographs with no other signatures currently available for sale. Mozart, Wolfgang Amadeus Dies Irae - Requiem in D Minor K. Bun B and 8Ball & MJG sampled Wolfgang Amadeus Mozart's ""Rex Tremendae" From Requiem Mass, K. Top lyrics Community Contribute Business. Number of voices: 4vv Voicing: SATB and Solo SATB. Lyricist: Latin Mass. Letra da música Sull'aria de Wolfgang Amadeus Mozart - Sull'aria / Che soave zeffiretto / Questa sera spirerà / Zeffiretto / Questa sera spirerà. 95 / Composed by Wolfgang Amadeus Mozart (1756-1791), edited by Heinz Moehn, Leopold Nowak. In 2015 RR Auction sold a two line note signed by Mozart for $217,000 and in 2017 Christie's sold a signed letter for $319,500. TOP Letras Wolfgang Amadeus Mozart. Mort à trente-cinq ans, il laisse une œuvre importante (six cent vingt-six œuvres sont répertoriées dans le catalogue Köchel), qui. Sinfonie in G (Ouverture) = Symphony in G major (overture) : KV 318 / "Urtext edition taken from: Wolfgang Amadeus Mozart, Neue Ausgabe sämtlicher Werke, issued in association with the Mozart cities of Augsburg, Salzburg, and Vienna by the International Stiftung Mozarteum Salzburg, Series IV, Category 11: Sinfonien, Band 6 (BA 4558)"--T. Wolfgang Amadeus Mozart - Wolfgang Amadeus Mozart - From Figaro to Don Giovanni: In spite of his success as a pianist and composer, Mozart had serious financial worries, and they worsened as the famously fickle Viennese found other idols. Nombre: Introitus Requiem AeternamCompositor: Wolfgang Amadeus Mozart. There is nothing beautiful about WP music. German composer, born at Salzburg on the 27th of January 1756. View Wolfgang Amadeus Mozart song lyrics by popularity along with songs featured in, albums, videos and song meanings. 626 [Main Theme] composed by Wolfgang Amadeus Mozart. Urtext of the New Mozart Edition. Already competent onkeyboardand violin, he composed from the age of five and. 30 Christmas Carols. "Dies Irae" Requiem Mass in D Minor II (1791) was sampled in Coming 2 America by Ludacris (2001). 2,118 likes · 2 talking about this. Read Full Biography. , with English words, by Patrick M. 13 in B-Flat Major, K. Wolfgang Amadeus Mozart was a great composer and performer (of violin and piano). Wolfgang Amadeus "Go Cart" Mozart (Pronounced Wolverine Deus Ex Machina Poptart) or Whoop Ass Mozart (29th February 1756 - 28th February 1791) was a meteorologist and amateur composer of muzak who met his soon-to-be civil partner Beethoven in 1762. Berlioz - Requiem. Concerto for Flute and Ha. Requiem; Turkish march; Lacrimosa; Eine Kleine Nachtmusik; Le Nozze Di Figaro-Voi Ch. With Hayden and Beethoven he brought to its height the achievement of the Viennese Classical school. Franz Süssmayr, a student of his, finished the rest of the Requiem, as Mozart had begun most of. Mozart, Wolfgang Amadeus: Opus/Catalogue Number Op. paroles de chanson / W / Wolfgang Amadeus Mozart lyrics | in English. Notes and appendices of movements composed by Süßmayr on themes probably by Mozart. ‘Theophilus’ is Greek for ‘loved by God’ and it seems that Mozart preferred the Latin translation of the same phrase – Amadeus. You can also filter the results to find the exact arrangement you're looking for! Lacrymosa from Requiem Mass: Wolfgang Amadeus Mozart Piano Solo $4. For spurious attributions see Wolfgang Amadeus Mozart - list of masses as well. Lacrimosa (coro)Symphonieorchester des Bayerischen RundfunksC. Wolfgang Amadeus Mozart Part 8 - Communio. Bun B and 8Ball & MJG sampled Wolfgang Amadeus Mozart's ""Confutatis" From Requiem Mass, K. 626, is a requiem mass by Wolfgang Amadeus Mozart (1756-1791). Wolfgang Amadeus Mozart lyrics. communio: lux aeterna; die zauberflÖte, k. Birthplace: Salzburg, Austria Location of death: Vienna, Austria Cause of death: Fever Remains: Buried, Zentralfriedhof. Running time: 48:12. He began learning the keyboard at the age of three and was composing by the time he was five years old. At 17, he was. Some people think Mozart died from kidney problems, others think he died poisoned by a rival musician. The Lyrics for Requiem, Lacrimosa by Wolfgang Amadeus Mozart have been translated into 2 languages Requiem aeternam dona eis, Domine, et lux perpetua luceat eis, te decet hymnus, Deus in Sion, et tibi reddetur votum in Jerusalem; exaudi orationem meam, ad te omnis caro veniet. Letra de Chapa Chapa. Use it for. Choral Vocal Score. Wolfgang Amadeus Mozart, compositorRequiem, Misa en Re menor, K. The tale begins as one of fiction would: A messenger arrives on Mozart's doorstep with a commission for a Requiem Mass. Gratias agimus tibi 5. It was thought that Requiem was written by Mozart to be part of a Vienna Requiem. "Dies Irae" Requiem Mass in D Minor II (1791) was sampled in Coming 2 America by Ludacris (2001). About the Composer of 'Requiem in D Minor' Mozart was born in Salzburg, Austria - the home of castles, wiener schnitzel, and Mozartkugel - a chocolate candy created in 1890 to honor Wolfgang Amadeus Mozart. The song is being conducted by Wolfgang Amadeus Mozart. Wolfgang Amadeus Mozart - Samples, Covers and Remixes on WhoSampled. SKU: MN0143733. Wolfgang Amadeus Mozart REQUIEM [d-moll KV 626. TOP Letras Wolfgang Amadeus Mozart. Wolfgang Amadeus Mozart (born Johannes Chrysostomus Wolfgangus Theophilus Mozart; 27 January 1756 - 5 December 1791) is among the most significant and enduring popular composers of European classical music. Story of Mozart in Words and Music. (music: "Quatuor a cordes no 17 KV458 en si bémol majeur OP. TITLE "WOLFGANG AMADEUS MOZART - Requiem K 626 (extrait): Introïtus Requiem Æternam" PERFORMER "Montserrat Figueras, La Capella Reial de Catalunya, Le Concert des Nations, Jordi Savall" REM COMPOSER "Wolfgang Amadeus Mozart" REM INDEX 00 58:00:15 INDEX 01 58:03:43 TRACK 12 AUDIO TITLE "JOSEPH HAYDN - Les sept dernières paroles (extrait. Shaw Parker Carols: Verdi - Requiem. Dies iræ, dies illa Solvet sæclum en favilla Teste davidcum sybilla Quantus tremor est fu. No damage to the jewel case or item cover, no scuffs, scratches, cracks, or holes. Turkish march; 5. Arranged for Violin and Piano. Recorded in 1971 in Vienna Directed by Hugo Käch. Buy sheet music books Mozart, Wolfgang Amadeus 172 scores found for "Requiem From: Requiem" Listen Details. Rises from the ashes. Composed by Wolfgang Amadeus Mozart (1756-1791). Wolfgang Amadeus Mozart was a great composer and performer (of violin and piano). 1 The Requiem, K 626, was partly composed by Wolfgang Amadeus Mozart, who died before its completion, but was finished by Franz Xavier. The mischief seems to have begun in 1825, when Aleksandr Pushkin wrote his short verse drama Mozart and Salieri, in which he fantasized that the supremely talented Mozart, upon completing the Requiem, is poisoned by his rival, the. 2,118 likes · 2 talking about this. Don Giovanni-Finch Han Da. Feb 16, 2021 - Explore Will Dougherty's board "Mozart Wolfgang Amadeus" on Pinterest. It was left unfinished at the. Sinfonie in G (Ouverture) = Symphony in G major (overture) : KV 318 / "Urtext edition taken from: Wolfgang Amadeus Mozart, Neue Ausgabe sämtlicher Werke, issued in association with the Mozart cities of Augsburg, Salzburg, and Vienna by the International Stiftung Mozarteum Salzburg, Series IV, Category 11: Sinfonien, Band 6 (BA 4558)"--T. Requiem aeternam dona eis, Domine, et lux perpetua luceat eis, te decet hymnus, Deus in Sion, et tibi reddetur votum in Jerusalem; exaudi orationem meam, ad te omnis caro veniet. About Wolfgang Amadeus Mozart A child prodigy, Mozart wrote his first symphony when he was eight years old and his first opera at 12. Symphony No. The song is being conducted by Wolfgang Amadeus Mozart. Letra de La Hookah. SKU: MN0143727. Rate this song's lyrics. Listen to Mozart: Requiem by Pamela Heuvelmans on Deezer. Wolfgang Amadeus Mozart. Un'aura amorosa; Piano Sonata No. Title: Requiem in D minor, KV 626 Composer: Wolfgang Amadeus Mozart. Requiem - Lacrimosa. Originally played on the piano, I have transposed the whole song into a two part song, one guitar for the treble Clef and one for the bass clef. christian hymns amp songs dies iræ lyrics english. Download the PDF, print it and use our learning tools to master it. The Requiem Mass in D minor by Wolfgang Amadeus Mozart was composed in Vienna in 1791. Wolfgang Amadeus Mozart - Requiem Mass in D Minor. Mozart's parents (Leopold Mozart and Anna Maria Mozart) were Catholics and raised their children in this religion, insisting upon strict obedience to the requirements of the Church. ] According to: Hug&Co. Wolfgang Amadeus Mozart (27 January 1756 - 5 December 1791), baptised as Johannes Chrysostomus Wolfgangus Theophilus Mozart, was a prolific and influential composer of the classical era. By 1772 he had composed 25 symphonies and two string quartets. Classical period. Dies iræ, dies illa Solvet sæclum en favilla Teste davidcum sybilla Quantus tremor est fu. High quality Flute sheet music for "Ah, vous dirai-je, Maman" by Wolfgang Amadeus Mozart. Cordeiro de Deus. TITLE "WOLFGANG AMADEUS MOZART - Requiem K 626 (extrait): Introïtus Requiem Æternam" PERFORMER "Montserrat Figueras, La Capella Reial de Catalunya, Le Concert des Nations, Jordi Savall" REM COMPOSER "Wolfgang Amadeus Mozart" REM INDEX 00 58:00:15 INDEX 01 58:03:43 TRACK 12 AUDIO TITLE "JOSEPH HAYDN - Les sept dernières paroles (extrait. Requiem æternam Lyrics. Rate this song's lyrics. Print and download sheet music for Lacrymosa, from Requiem, K. Letra da música Sull'aria de Wolfgang Amadeus Mozart - Sull'aria / Che soave zeffiretto / Questa sera spirerà / Zeffiretto / Questa sera spirerà. Lyrics A+B: Lacrimosa dies illa qua resurget et favilla judicandus homo reus. High quality Clarinet sheet music for "Requiem KV 626: Requiem Aeternam" by Wolfgang Amadeus Mozart. I have read a book Wolfgang Amadeus Mozart: A Biography, and I think the book was very nice and very. 11; Die Zauberflöte-Der hölle. Chansons les plus populaires de Wolfgang Amadeus Mozart selon nombre de visites. from Il re pastore. Un'aura amorosa; 8. Mozart accepted, a fee was agreed upon, and a condition set that he not try to learn the. Comentar canción. Requiem in D minor, K. Mozart had composed only the first 8 measures of this piece before his passing (December 5, 1791). Don Giovanni-Finch Han Da. It is track #8 from the album BBC Music, Volume 14, Number 5: Requiem / Symphony No. Learn more about Mozart in this article. 492: Overture", "Le Nozze Di Figaro, K. Music by Wolfgang Amadeus Mozart / ed. Comenta o pregunta lo que. ; [1] 27 January 1756 - 5 December 1791), baptised as Johannes Chrysostomus Wolfgangus Theophilus Mozart, [2] was a prolific and influential composer of the Classical era. Wolfgang Amadeus Mozart. Lauridson - Lux Aeterna: Mozart - Requiem. Nombre de paroles : 21954; Paroles des chansons et traductions de Wolfgang Amadeus Mozart. +Zuerich, Switzerland Languages: Latin, German Latina: 1. Sequentia) from Mozart's Requiem with Latin lyrics and English translation and my drawing. This item: Requiem in Full Score (Latin Edition) by Wolfgang Amadeus Mozart Paperback $11. Requiem by Wolfgang Amadeus Mozart, 9780486450438, available at Book Depository with free delivery worldwide. Compassionate Lord Jesus, grant them rest. Some might remember hearing this in the movie The Big Lebowski. (music: "Quatuor a cordes no 17 KV458 en si bémol majeur OP. Requiem In D Minor K626 : I Introitus - Requiem Aeternam: Wolfgang Amadeus Mozart: 04:56: 3: Requiem In D Minor K626 : II Kyrie: Wolfgang Amadeus Mozart: 02:17: 4: Requiem In D Minor K626 : III Sequenz - Dies Irae: Wolfgang Amadeus Mozart: 01:58: 5: Requiem In D Minor K626 : IV Tuba Mirum: Wolfgang Amadeus Mozart: 03:23: 6: Requiem In D Minor. 13 in G Major, K. SATB choir sheet music book by Wolfgang Amadeus Mozart (1756-1791): Alfred Music at Sheet Music Plus. Wolfgang Amadeus Mozart (1756-1791) wrote during the Classical Era of Western Classical Music, the same era that brings us Haydn and early Beethoven. Composed by Wolfgang Amadeus Mozart (1756-1791). C'est l'éditeur Dover qui a publiée cette oeuvre. Cordeiro de Deus. 95 / Composed by Wolfgang Amadeus Mozart (1756-1791), edited by Heinz Moehn, Leopold Nowak. gloria: "gloria in excelsis" requiem in re minore, k 626 - 14. He began learning the keyboard at the age of three and was composing by the time he was five years old. Wolfgang was no ordinary kid. Wolfgang Amadeus Mozart (1756-1791) wrote during the Classical Era of Western Classical Music, the same era that brings us Haydn and early Beethoven. Publisher: Musicnotes for Choir. Austria (1756 - 1791) 2465 sheet music 1877 MP3 892 MIDI. Franz Süssmayr, a student of his, finished the rest of the Requiem, as Mozart had begun most of. plus-circle Add Review. 417a I-Catalogue Number I-Cat. Mozart's Requiem is one of the most famous choral works in the classical repertoire. Each title offers a version with and without choirs. 417a/427 (fragment) "great": iia. Lacrimosa is one of the most famous and iconic movements from the Requiem Mass and can even be found in modern movies. Mozart's Requiem - Alto Chorus Rehearsal Aid. Comentar canción. The song is being conducted by Wolfgang Amadeus Mozart. Uploaded by Sharyl. Mozart, Vienna, Austria. This Piano sheet music was originally published in the key of F. Product Type: Musicnotes. This large-scale work, a missa solemnis, is scored for two soprano soloists, a tenor and a bass, double. Letra de Dies Irae (en español) Letra de Penser l'imposible (en español) Letra de Lacrimosa. Wolfgang Amadeus Mozart (born Johannes Chrysostomus Wolfgangus Theophilus Mozart; 27 January 1756 – 5 December 1791) is among the most significant and enduring popular composers of European classical music. christian hymns amp songs dies iræ lyrics english. The Requiem Mass in D minor by Wolfgang Amadeus Mozart was composed in Vienna in 1791. Overview ↓ Biography ↓ Compositions ↓ Credits ↓ Related ↓. Title Mozarts Requiem. High quality Guitar sheet music and tabs for The Marriage of Figaro Overture by Wolfgang Amadeus Mozart. He was the son of Leopold Mozart, violin instructor, court composer and deputy music director at the court of the prince-archbishop of Salzburg, and Anna Maria, née Pertl. Print and download choral sheet music for Requiem, K. Lyrics for Requiem: "Confutatis"; "Lacrimosa" by Wolfgang Amadeus Mozart. Authors/composers of this song: Wolfgang Amadeus Mozart. , with English words, by Patrick M. See the full Requiem lyrics from Wolfgang Amadeus Mozart. Die Entführugh aus dem Se. 626; Lacrimosa Wolfgang Amadeus Mozart + 2 Advanced. Wolfgang Amadeus Mozart Requiem. See more ideas about mozart, amadeus, classical music. This rationalist faction is identified by Katharine Thomson as the Illuminati, a masonically inspired group which was founded by Bavarian professor of canon law Adam Weishaupt, who was. Requiem In D Minor K626 : I Introitus - Requiem Aeternam: Wolfgang Amadeus Mozart: 04:56: 3: Requiem In D Minor K626 : II Kyrie: Wolfgang Amadeus Mozart: 02:17: 4: Requiem In D Minor K626 : III Sequenz - Dies Irae: Wolfgang Amadeus Mozart: 01:58: 5: Requiem In D Minor K626 : IV Tuba Mirum: Wolfgang Amadeus Mozart: 03:23: 6: Requiem In D Minor. Rate this song's lyrics. 618 Canzonetta sull' aria (Le nozze di Figaro, Act III) Kyrie Lacrimosa Lacrimosa (Requiem in D minor, K. Eine Kleine Nachtmusik. Horn concerto No. Find Wolfgang Amadeus Mozart - Agnus Dei official song lyrics : Agnus Dei, qui tollis peccata mundi: donna eis requiem. Buy sheet music books Mozart, Wolfgang Amadeus 172 scores found for "Requiem From: Requiem" Listen Details. Mozart died aged 35 on 5 December 1791, before he could complete the work. Title Mozarts Requiem. Brahms - Requiem: Durufle - Requiem. (music: "Quatuor a cordes no 17 KV458 en si bémol majeur OP. Requiem in D minor, K. Wolfgang Amadeus Mozart - Requiem (Letras y canción para escuchar) - Requiem aeternam dona eis, Domine, et lux perpetua luceat eis / te decet hymnus, Deus in Sion, et tibi reddetur votum in Jerusalem / exaudi orationem meam, ad. [2463 PDF + 1876 MP3 + 892 MIDI] - Joannes Chrysostomus Wolfgangus Theophilus Mozart, ou Wolfgang Amadeus Mozart (né à Salzbourg, principauté du Saint-Empire romain germanique, le 27 janvier 1756, mort à Vienne le 5 décembre 1791), est un compositeur. Andante cantabile, which was featured in the Bridgerton soundtruck, and Mozart: Requiem in D Minor, K. We have 0 albums and 1 song lyrics in our database. Composed by Wolfgang Amadeus Mozart. A triumphant Mozart masterwork for today's choirs! This joyful opera finale opens and closes with a boisterous choral fanfare, sandwiches a brief expressive vocal duet in the middle, features robust Italian lyrics. Please consult the manual of style for creating composer work lists. TITLE "WOLFGANG AMADEUS MOZART - Requiem K 626 (extrait): Introïtus Requiem Æternam" PERFORMER "Montserrat Figueras, La Capella Reial de Catalunya, Le Concert des Nations, Jordi Savall" REM COMPOSER "Wolfgang Amadeus Mozart" REM INDEX 00 58:00:15 INDEX 01 58:03:43 TRACK 12 AUDIO TITLE "JOSEPH HAYDN - Les sept dernières paroles (extrait. German Dance For Orchestra In C Major (Die Schlittenfahrt), K. Wolfgang Amadeus Mozart - Cosi Fan Tutti - Soave Sia Il Vento; Wolfgang Amadeus Mozart - Der Vogelfänger Bin Ich Ja; Wolfgang Amadeus Mozart - Andante Con Moto; Wolfgang Amadeus Mozart - Flute and Harp Concerto in C Major, K. Requiem aeternam dona eis. Get one of the 53 lyrics and watch the video by artist Wolfgang Amadeus Mozart. Autres paroles Wolfgang Amadeus Mozart Vivat Bacchus Brüder, reicht die Hand zum Bunde Le nozze di Figaro (Atto Terzo) Confutatis Maledictis (Requiem Mass in D Minor) Sull'ariache soave zeffiretto Non piu andrai Laudate Dominum Die Entführung aus dem Serail N1 Arie Ave verum corpus Lacrimosa Der Hölle Rache kocht Benedictus Die. christian hymns amp songs dies iræ lyrics english. Surprisingly, he is not identified with radical formal or harmonic innovations, or with the profound kind of symbolism heard in some of Bach's works. Find Wolfgang Amadeus Mozart - La ci darem la mano official song lyrics : (Don Giovanni): Là ci darem la mano, Là mi dirai di sì, Vedi,. Full of tears will be that day. Letra de Dies Irae (en español) Letra de Penser l'imposible (en español) Letra de Lacrimosa. Tearful that day, on which will rise from ashes guilty man for judgement. According to Peter Shaffer's play (later made into a film) Amadeus, Mozart literally wrote this piece on his deathbed, having been poisoned by Salieri. Rondo Alla Turca from Piano Sonata No. Use it for personal and educational purposes only. Discover all Wolfgang Amadeus Mozart's music connections, watch videos, listen to music, discuss and download. Wolfgang Amadeus Mozart - Requiem Mass in D Minor. com This site uses features found in IE5 and Netscape 6 and higher. Listen to Requiem: Kyrie from Wolfgang Amadeus Mozart's Mozart: Requiem Realisations for free, and see the artwork, lyrics and similar artists. 15 in F Major, K. Mozart accepted, a fee was agreed upon, and a condition set that he not try to learn the. english translation of mozart manly warringah choir. 626: Lacrimosa" is a song by Wolfgang Amadeus Mozart. In my opinion CPDL, for phylological (and eventually copyright, if those editions are recent) reasons should have the Requiem lyrics. He composed over 600 works, many acknowledged as pinnacles of symphonic, concertante, chamber, operatic, and choral music. Read Full Biography. By Wolfgang Amadeus Mozart (1756-1791). 1 The Requiem, K 626, was partly composed by Wolfgang Amadeus Mozart, who died before its completion, but was finished by Franz Xavier. Wolfgang Amadeus Mozart grew up in Salzburg under the regulation of his strict father Leopold who also was a famous composer of his time. 626: Lacrimosa sheet music composed by Wolfgang Amadeus Mozart. Later completions have since been offered, and the most favourably received among these is one by American musicologist Robert D. Get all the lyrics to songs on Requiem and join the Genius community of music scholars to learn the meaning behind the lyrics. But y'know, it's odd to me. from Il re pastore. Titles matching "Wolfgang Amadeus Mozart" are listed below. Music by Wolfgang Amadeus Mozart / ed. , Stephen Cleobury. Wolfgang Amadeus Mozart, compositorRequiem, Misa en Re menor, K. C'est l'éditeur Dover qui a publiée cette oeuvre. Print and download choral sheet music for Requiem, K. Check-out these awesome song lyrics by the artist, learn every word of your favourite song and sing it like Wolfgang Amadeus Mozart. 13 in B-Flat Major, K. Mozart is famous for being a child prodigy. Dies Irae Wolfgang Amadeus Mozart. Talk:Requiem, KV 626 (Wolfgang Amadeus Mozart) From ChoralWiki. SAB Choral Octavo. Requiem; Turkish march; Lacrimosa; Eine Kleine Nachtmusik; Le Nozze Di Figaro-Voi Ch. 11; Die Zauberflöte-Der hölle. 626) in Vienna in 1791, following an anonymous commision from Count Franz von Walsegg, who requested the piece to commemorate the anniversary of his wife's death. 626) by Wolfgang Amadeus Mozart was composed in Vienna in 1791 and left unfinished at the composer's death. Listen to Requiem (K. Wolfgang was no ordinary kid. IWM 291 Key C minor Movements/Sections Mov'ts/Sec's: 12 movements (incomplete): I. By the time he was four years old, he was composing short pieces that his father wrote down for him. Vocal Collection. , with English words, by Patrick M. Much of the dialog suggesting that Mozart wasn't. Translation of 'Introitus' by Wolfgang Amadeus Mozart from Latin to English Deutsch English Español Français Hungarian Italiano Nederlands Polski Português (Brasil) Română Svenska Türkçe Ελληνικά Български Русский Српски العربية فارسی 日本語 한국어. Wolfgang Amadeus Mozart - Cosi Fan Tutti - Soave Sia Il Vento; Wolfgang Amadeus Mozart - Der Vogelfänger Bin Ich Ja; Wolfgang Amadeus Mozart - Andante Con Moto; Wolfgang Amadeus Mozart - Flute and Harp Concerto in C Major, K. A completed version dated 1792 by Franz Xaver Süssmayr was delivered to Count Franz von Walsegg, who commissioned the piece for a requiem service to commemorate the anniversary of. 30 Christmas Carols. If you use and like Free-scores. Letra de La Hookah. In 2015 RR Auction sold a two line note signed by Mozart for $217,000 and in 2017 Christie's sold a signed letter for $319,500. Wolfgang was no ordinary kid. With choral notation and piano reduction. Hear my prayer, unto Thee shall all flesh come. Symphony No. Leck mich im Arsch; 2. The Requiem in D minor, K. Mozart had a big sister named Maria Anna Mozart who was always called Nannerl. C: Huic ergo parce, Deus, pie Jesu Domine, D: dona eis Requiem. others could have just been taken from particular editions of the Requiem that rearranged a little the lyrics. Wolfgang Amadeus Mozart was a musician capable of playing multiple instruments who started playing in public at the age of 6. Berlioz - Requiem. By Franz Xaver Süssmayer: Wolfgang Amadeus MOZART : Requiem, K.